Sons of Anarchy (2008) Season 1 S01 (1080p BluRay x265 HEVC 10bit...

seeders: 10
leechers: 4
updated:
Added by QxR in Other
Torrent reliable.


# LIMITED VPN OFFER #
strongly advises you to use NordVPN while downloading torrents.
NordVPN is the safest VPN on the market, and the fastest VPN as well.
No IP Log is saved using NordVPN, avoid other VPN providers and choose the safest one.
Click here and buy NordVPN it's on rebates today!
We were able to verify your IP: 185.14.195.111, country: Ukraine.
If we can do that, others can too, protect your privacy with NordVPN.
is trying the best for you!
# LIMITED VPN OFFER #


Description

 

 

Media Information Code:General  
Format : Matroska
Format version : Version 4 / Version 2
File size : 2.11 GiB
Duration : 57 min 11 s
Overall bit rate : 5 278 kb/s
Movie name : Sons of Anarchy, Season 1
Encoded date : UTC 2018-10-07 21:38:44
Writing application : mkvmerge v24.0.0 ('Beyond The Pale') 64-bit
Writing library : libebml v1.3.6 + libmatroska v1.4.9
Writing frontend : StaxRip v1.7.0.6

Video  
ID : 1
Format : HEVC
Format/Info : High Efficiency Video Coding
Format profile : Main [email protected]@Main
Codec ID : V_MPEGH/ISO/HEVC
Duration : 57 min 11 s
Bit rate : 4 882 kb/s
Width : 1 920 pixels
Height : 1 080 pixels
Display aspect ratio : 16:9
Frame rate mode : Constant
Frame rate : 23.976 (24000/1001) FPS
Color space : YUV
Chroma subsampling : 4:2:0
Bit depth : 10 bits
Bits/(Pixel*Frame) : 0.098
Stream size : 1.95 GiB (92%)
Title : Encoded by: ImEverlasting
Writing library : x265 2.8+66-88ee12651e30:[Windows][MSVC 1915][64 bit] 10bit
Encoding settings : cpuid=1111039 / frame-threads=2 / numa-pools=4 / wpp / no-pmode / no-pme / no-psnr / no-ssim / log-level=2 / input-csp=1 / input-res=1920x1080 / interlace=0 / total-frames=82272 / level-idc=0 / high-tier=1 / uhd-bd=0 / ref=4 / no-allow-non-conformance / no-repeat-headers / annexb / no-aud / no-hrd / info / hash=0 / no-temporal-layers / open-gop / min-keyint=23 / keyint=250 / gop-lookahead=0 / bframes=8 / b-adapt=2 / b-pyramid / bframe-bias=0 / rc-lookahead=25 / lookahead-slices=4 / scenecut=40 / radl=0 / no-intra-refresh / ctu=64 / min-cu-size=8 / no-rect / no-amp / max-tu-size=32 / tu-inter-depth=1 / tu-intra-depth=1 / limit-tu=0 / rdoq-level=2 / dynamic-rd=0.00 / no-ssim-rd / signhide / no-tskip / nr-intra=0 / nr-inter=0 / no-constrained-intra / no-strong-intra-smoothing / max-merge=3 / limit-refs=3 / no-limit-modes / me=3 / subme=5 / merange=57 / temporal-mvp / weightp / no-weightb / no-analyze-src-pics / deblock=-3:-3 / no-sao / no-sao-non-deblock / rd=4 / no-early-skip / rskip / no-fast-intra / no-tskip-fast / no-cu-lossless / no-b-intra / no-splitrd-skip / rdpenalty=0 / psy-rd=2.00 / psy-rdoq=1.00 / no-rd-refine / no-lossless / cbqpoffs=0 / crqpoffs=0 / rc=crf / crf=21.0 / qcomp=0.60 / qpstep=4 / stats-write=0 / stats-read=0 / ipratio=1.40 / pbratio=1.30 / aq-mode=3 / aq-strength=1.00 / cutree / zone-count=0 / no-strict-cbr / qg-size=32 / no-rc-grain / qpmax=69 / qpmin=0 / no-const-vbv / sar=0 / overscan=0 / videoformat=5 / range=0 / colorprim=2 / transfer=2 / colormatrix=2 / chromaloc=0 / display-window=0 / max-cll=0,0 / min-luma=0 / max-luma=1023 / log2-max-poc-lsb=8 / vui-timing-info / vui-hrd-info / slices=1 / no-opt-qp-pps / no-opt-ref-list-length-pps / no-multi-pass-opt-rps / scenecut-bias=0.05 / no-opt-cu-delta-qp / no-aq-motion / no-hdr / no-hdr-opt / no-dhdr10-opt / no-idr-recovery-sei / analysis-reuse-level=5 / scale-factor=0 / refine-intra=0 / refine-inter=0 / refine-mv=0 / no-limit-sao / ctu-info=0 / no-lowpass-dct / refine-mv-type=0 / copy-pic=1 / max-ausize-factor=1.0 / no-dynamic-refine / no-single-sei
Default : Yes
Forced : No

Audio  
ID : 2
Format : AAC
Format/Info : Advanced Audio Codec
Format profile : LC
Codec ID : A_AAC
Duration : 57 min 11 s
Bit rate : 373 kb/s
Channel(s) : 6 channels
Channel positions : Front: L C R, Side: L R, LFE
Sampling rate : 48.0 kHz
Frame rate : 46.875 FPS (1024 spf)
Compression mode : Lossy
Delay relative to video : 20 ms
Stream size : 153 MiB (7%)
Language : English
Default : No
Forced : No

Subtitle #1  
ID : 3
Format : VobSub
Muxing mode : zlib
Codec ID : S_VOBSUB
Codec ID/Info : Picture based subtitle format used on DVDs
Duration : 56 min 16 s
Bit rate : 12.1 kb/s
Count of elements : 774
Stream size : 4.87 MiB (0%)
Language : English
Default : No
Forced : No

Subtitle #2  
ID : 4
Format : VobSub
Muxing mode : zlib
Codec ID : S_VOBSUB
Codec ID/Info : Picture based subtitle format used on DVDs
Duration : 56 min 3 s
Bit rate : 9 771 b/s
Count of elements : 614
Stream size : 3.92 MiB (0%)
Language : Spanish
Default : No
Forced : No

Subtitle #3  
ID : 5
Format : VobSub
Muxing mode : zlib
Codec ID : S_VOBSUB
Codec ID/Info : Picture based subtitle format used on DVDs
Duration : 55 min 23 s
Bit rate : 253 b/s
Count of elements : 23
Stream size : 103 KiB (0%)
Language  : Spanish
Default : No
Forced : No

Subtitle #4  
ID : 6
Format : VobSub
Muxing mode : zlib
Codec ID : S_VOBSUB
Codec ID/Info : Picture based subtitle format used on DVDs
Duration : 55 min 23 s
Bit rate : 253 b/s
Count of elements : 23
Stream size : 103 KiB (0%)
Language : Spanish
Default : No
Forced : No

Subtitle #5  
ID : 7
Format : VobSub
Muxing mode : zlib
Codec ID : S_VOBSUB
Codec ID/Info : Picture based subtitle format used on DVDs
Duration : 55 min 23 s
Bit rate : 253 b/s
Count of elements : 23
Stream size : 103 KiB (0%)
Language : Spanish
Default : No
Forced : No

Subtitle #6  
ID : 8
Format : VobSub
Muxing mode : zlib
Codec ID : S_VOBSUB
Codec ID/Info : Picture based subtitle format used on DVDs
Duration : 56 min 3 s
Bit rate : 10.7 kb/s
Count of elements : 628
Stream size : 4.27 MiB (0%)
Language : French
Default : No
Forced : No

Menu  
00:00:00.000 : en:Chapter 01
00:06:21.297 : en:Chapter 02
00:10:26.125 : en:Chapter 03
00:15:22.588 : en:Chapter 04
00:18:58.637 : en:Chapter 05
00:23:41.628 : en:Chapter 06
00:27:28.229 : en:Chapter 07
00:34:25.063 : en:Chapter 08
00:37:46.430 : en:Chapter 09
00:40:46.444 : en:Chapter 10
00:45:04.076 : en:Chapter 11
00:50:27.024 : en:Chapter 12
Source Information Code:Release:
Sons of Anarchy S01 2008 BluRay NoRegion 1080p AVC DTS-HD MA-REPTiLE (121.75 GB)
 
Note From QxR: Quote:Whilst we are happy for our releases to be re-posted on a platform we aren't on, please do so in an 'as-is' format. We ask that you do not create a new torrent, include all descriptions you see above including the QxR logo, tags, notes and screenshots. If you'd like to become a permanent poster on a website we don't post to, feel free to get in contact with a QxR member.
 

Sharing Widget


Download torrent
Size: 22.6 GB
seeders:10
leechers:4
Sons of Anarchy (2008) Season 1 S01 (1080p BluRay x265 HEVC 10bit... - (24266565222 Bytes)



To share this torrent use the code below and insert it into comments, status messages, forum posts or your signature.

Torrent: Sons of Anarchy (2008) Season 1 S01 (1080p BluRay x265 HEVC 10bit...

Trackers

tracker name
udp://tracker.coppersurfer.tk:6969/announce
udp://tracker.opentrackr.org:1337/announce
udp://tracker.zer0day.to:1337/announce
udp://tracker.torrent.eu.org:451/announce
udp://tracker.leechers-paradise.org:6969/announce
udp://p4p.arenabg.com:1337/announce
udp://tracker.internetwarriors.net:1337/announce
udp://tracker.zer0day.to:1337/announce
udp://tracker.leechers-paradise.org:6969/announce
udp://coppersurfer.tk:6969/announce
ĀµTorrent compatible trackers list

Locations

name
KickassTorrents
Torrent hash: 37D1D3E4E36C38758BB5747607C14CC80B5296CB

# LIMITED VPN OFFER #
strongly advises you to use NordVPN while downloading torrents.
NordVPN is the safest VPN on the market, and the fastest VPN as well.
No IP Log is saved using NordVPN, avoid other VPN providers and choose the safest one.
Click here and buy NordVPN it's on rebates today!
We were able to verify your IP: 185.14.195.111, country: Ukraine.
If we can do that, others can too, protect your privacy with NordVPN.
is trying the best for you!
# LIMITED VPN OFFER #


All Comments

*comments box temporarily disabled*
Report a bug