Sons of Anarchy (2008) Season 3 S03 (1080p BluRay x265 HEVC 10bit...

seeders: 10
leechers: 6
updated:
Added by QxR in Other
Torrent reliable.


# LIMITED VPN OFFER #
strongly advises you to use NordVPN while downloading torrents.
NordVPN is the safest VPN on the market, and the fastest VPN as well.
No IP Log is saved using NordVPN, avoid other VPN providers and choose the safest one.
Click here and buy NordVPN it's on rebates today!
We were able to verify your IP: 91.200.80.60, country: Ukraine.
If we can do that, others can too, protect your privacy with NordVPN.
is trying the best for you!
# LIMITED VPN OFFER #


Description

 

http://www.imdb.com/title/tt1124373/ 

 

Media Information Code:General  
Format : Matroska
Format version : Version 4 / Version 2
File size : 1.44 GiB
Duration : 49 min 50 s
Overall bit rate : 4 129 kb/s
Movie name : Sons of Anarchy, Season 3 Disc 1
Encoded date : UTC 2018-11-20 06:31:17
Writing application : mkvmerge v20.0.0 ('I Am The Sun') 64-bit
Writing library : libebml v1.3.5 + libmatroska v1.4.8
Writing frontend : StaxRip v1.7.0.6

Video  
ID : 1
Format : HEVC
Format/Info : High Efficiency Video Coding
Format profile : Main [email protected]@Main
Codec ID : V_MPEGH/ISO/HEVC
Duration : 49 min 50 s
Bit rate : 3 741 kb/s
Width : 1 920 pixels
Height : 1 080 pixels
Display aspect ratio : 16:9
Frame rate mode : Constant
Frame rate : 23.976 (24000/1001) FPS
Color space : YUV
Chroma subsampling : 4:2:0
Bit depth : 10 bits
Bits/(Pixel*Frame) : 0.075
Stream size : 1.30 GiB (91%)
Title : Encoded by: ImEverlasting
Writing library : x265 2.8+66-88ee12651e30:[Windows][MSVC 1915][64 bit] 10bit
Encoding settings : cpuid=1111039 / frame-threads=2 / numa-pools=4 / wpp / no-pmode / no-pme / no-psnr / no-ssim / log-level=2 / input-csp=1 / input-res=1920x1080 / interlace=0 / total-frames=71689 / level-idc=0 / high-tier=1 / uhd-bd=0 / ref=4 / no-allow-non-conformance / no-repeat-headers / annexb / no-aud / no-hrd / info / hash=0 / no-temporal-layers / open-gop / min-keyint=23 / keyint=250 / gop-lookahead=0 / bframes=8 / b-adapt=2 / b-pyramid / bframe-bias=0 / rc-lookahead=25 / lookahead-slices=4 / scenecut=40 / radl=0 / no-intra-refresh / ctu=64 / min-cu-size=8 / no-rect / no-amp / max-tu-size=32 / tu-inter-depth=1 / tu-intra-depth=1 / limit-tu=0 / rdoq-level=2 / dynamic-rd=0.00 / no-ssim-rd / signhide / no-tskip / nr-intra=0 / nr-inter=0 / no-constrained-intra / no-strong-intra-smoothing / max-merge=3 / limit-refs=3 / no-limit-modes / me=3 / subme=5 / merange=57 / temporal-mvp / weightp / weightb / no-analyze-src-pics / deblock=-3:-3 / no-sao / no-sao-non-deblock / rd=4 / no-early-skip / rskip / no-fast-intra / no-tskip-fast / no-cu-lossless / no-b-intra / no-splitrd-skip / rdpenalty=0 / psy-rd=2.00 / psy-rdoq=1.00 / no-rd-refine / no-lossless / cbqpoffs=0 / crqpoffs=0 / rc=crf / crf=21.0 / qcomp=0.60 / qpstep=4 / stats-write=0 / stats-read=0 / ipratio=1.40 / pbratio=1.30 / aq-mode=3 / aq-strength=1.00 / cutree / zone-count=0 / no-strict-cbr / qg-size=32 / no-rc-grain / qpmax=69 / qpmin=0 / no-const-vbv / sar=0 / overscan=0 / videoformat=5 / range=0 / colorprim=2 / transfer=2 / colormatrix=2 / chromaloc=0 / display-window=0 / max-cll=0,0 / min-luma=0 / max-luma=1023 / log2-max-poc-lsb=8 / vui-timing-info / vui-hrd-info / slices=1 / no-opt-qp-pps / no-opt-ref-list-length-pps / no-multi-pass-opt-rps / scenecut-bias=0.05 / no-opt-cu-delta-qp / no-aq-motion / no-hdr / no-hdr-opt / no-dhdr10-opt / no-idr-recovery-sei / analysis-reuse-level=5 / scale-factor=0 / refine-intra=0 / refine-inter=0 / refine-mv=0 / no-limit-sao / ctu-info=0 / no-lowpass-dct / refine-mv-type=0 / copy-pic=1 / max-ausize-factor=1.0 / no-dynamic-refine / no-single-sei
Default : Yes
Forced : No

Audio  
ID : 2
Format : AAC
Format/Info : Advanced Audio Codec
Format profile : LC
Codec ID : A_AAC
Duration : 49 min 50 s
Bit rate : 364 kb/s
Channel(s) : 6 channels
Channel positions : Front: L C R, Side: L R, LFE
Sampling rate : 48.0 kHz
Frame rate : 46.875 FPS (1024 spf)
Compression mode : Lossy
Delay relative to video : 20 ms
Stream size : 130 MiB (9%)
Language : English
Default : No
Forced : No

Subtitle #1  
ID : 3
Format : VobSub
Muxing mode : zlib
Codec ID : S_VOBSUB
Codec ID/Info : Picture based subtitle format used on DVDs
Duration : 49 min 45 s
Bit rate : 8 881 b/s
Count of elements : 584
Stream size : 3.16 MiB (0%)
Language : English
Default : No
Forced : No

Subtitle #2  
ID : 4
Format : VobSub
Muxing mode : zlib
Codec ID : S_VOBSUB
Codec ID/Info : Picture based subtitle format used on DVDs
Duration : 48 min 14 s
Bit rate : 6 976 b/s
Count of elements : 495
Stream size : 2.41 MiB (0%)
Language : Spanish
Default : No
Forced : No

Subtitle #3  
ID : 5
Format : VobSub
Muxing mode : zlib
Codec ID : S_VOBSUB
Codec ID/Info : Picture based subtitle format used on DVDs
Duration : 48 min 14 s
Bit rate : 6 741 b/s
Count of elements : 463
Stream size : 2.33 MiB (0%)
Language : French
Default : No
Forced : No

Subtitle #4  
ID : 6
Format : VobSub
Muxing mode : zlib
Codec ID : S_VOBSUB
Codec ID/Info : Picture based subtitle format used on DVDs
Duration : 48 min 14 s
Bit rate : 7 536 b/s
Count of elements : 492
Stream size : 2.60 MiB (0%)
Language : Portuguese
Default : No
Forced : No

Subtitle #5  
ID : 7
Format : VobSub
Muxing mode : zlib
Codec ID : S_VOBSUB
Codec ID/Info : Picture based subtitle format used on DVDs
Duration : 48 min 14 s
Bit rate : 5 932 b/s
Count of elements : 501
Stream size : 2.05 MiB (0%)
Language : Chinese
Default : No
Forced : No

Menu  
00:00:00.000 : en:Chapter 01
00:06:17.668 : en:Chapter 02
00:11:42.993 : en:Chapter 03
00:16:11.261 : en:Chapter 04
00:17:47.274 : en:Chapter 05
00:22:17.419 : en:Chapter 06
00:28:21.574 : en:Chapter 07
00:32:33.034 : en:Chapter 08
00:35:35.299 : en:Chapter 09
00:39:18.147 : en:Chapter 10
00:41:48.422 : en:Chapter 11
00:44:48.977 : en:Chapter 12
Source Information Code:Release:
Sons.of.Anarchy.S03.1080p.BluRay.AVC.DTS-HD.MA.5.1 (126.60 GB)
 
Note From QxR: Quote:Whilst we are happy for our releases to be re-posted on a platform we aren't on, please do so in an 'as-is' format. We ask that you do not create a new torrent, include all descriptions you see above including the QxR logo, tags, notes and screenshots. If you'd like to become a permanent poster on a website we don't post to, feel free to get in contact with a QxR member.
 

Sharing Widget


Download torrent
Size: 15.6 GB
seeders:10
leechers:6
Sons of Anarchy (2008) Season 3 S03 (1080p BluRay x265 HEVC 10bit... - (16750372454 Bytes)



To share this torrent use the code below and insert it into comments, status messages, forum posts or your signature.

Torrent: Sons of Anarchy (2008) Season 3 S03 (1080p BluRay x265 HEVC 10bit...

Trackers

tracker name
udp://tracker.opentrackr.org:1337/announce
udp://tracker.coppersurfer.tk:6969/announce
udp://tracker.torrent.eu.org:451/announce
udp://tracker.zer0day.to:1337/announce
udp://tracker.leechers-paradise.org:6969/announce
udp://coppersurfer.tk:6969/announce
ĀµTorrent compatible trackers list

Locations

name
KickassTorrents
Torrent hash: FC229718E5AB2A010554DFC8278DBD10A2C52E86

# LIMITED VPN OFFER #
strongly advises you to use NordVPN while downloading torrents.
NordVPN is the safest VPN on the market, and the fastest VPN as well.
No IP Log is saved using NordVPN, avoid other VPN providers and choose the safest one.
Click here and buy NordVPN it's on rebates today!
We were able to verify your IP: 91.200.80.60, country: Ukraine.
If we can do that, others can too, protect your privacy with NordVPN.
is trying the best for you!
# LIMITED VPN OFFER #


All Comments

*comments box temporarily disabled*
Report a bug